<?xml version="1.0" standalone="no"?>
<!DOCTYPE svg PUBLIC "-//W3C//DTD SVG 1.1//EN" "http://www.w3.org/Graphics/SVG/1.1/DTD/svg11.dtd" >
<svg xmlns="http://www.w3.org/2000/svg">
<metadata>
This is a custom SVG webfont generated by Font Squirrel.
Copyright   : Copyright c 2010 by Marco Mller All rights reserved
Designer    : Marco Mller
Foundry     : Marco Mller
Foundry URL : www26pluszeichende
</metadata>
<defs>
<font id="webfontzCPiyXMS" horiz-adv-x="452" >
<font-face units-per-em="2048" ascent="1536" descent="-512" />
<missing-glyph horiz-adv-x="430" />
<glyph unicode=" "  horiz-adv-x="430" />
<glyph unicode="&#x09;" horiz-adv-x="430" />
<glyph unicode="&#xa0;" horiz-adv-x="430" />
<glyph unicode="!" horiz-adv-x="284" d="M121 213h102q23 0 39.5 -16.5t16.5 -42.5v-95q0 -27 -16.5 -43t-39.5 -16h-102q-23 0 -39 16.5t-16 42.5v95q0 27 16 43t39 16zM129 1434h80q6 0 16.5 -2t27.5 -16.5t17 -41.5v-991q-4 -53 -59 -59h-80q-6 0 -16.5 2t-26.5 16t-16 41v991q4 54 57 60z" />
<glyph unicode="&#x22;" horiz-adv-x="555" d="M150 1083q-31 0 -44 60l-26 231q0 27 14.5 43.5t36.5 16.5h86q23 0 37 -16.5t14 -43.5l-26 -231q-6 -59 -43 -60h-49zM436 1083q-31 0 -43 60l-26 231q0 27 14 43.5t37 16.5h86q23 0 37 -16.5t14 -43.5l-27 -231q-6 -59 -43 -60h-49z" />
<glyph unicode="#" horiz-adv-x="1306" d="M135 403h201l65 267h-231q-63 0 -61 49l2 8l16 64q0 6 3 14t19.5 22.5t43.5 14.5h251l62 252q14 55 65 51h66q6 0 15.5 -2t21.5 -19.5t4 -50.5l-57 -231h256l63 252q14 55 66 51h65q6 0 15.5 -2t21.5 -19.5t4 -50.5l-57 -231h215q63 0 61 -49l-2 -9l-16 -63 q0 -6 -3 -14.5t-19.5 -22.5t-43.5 -14h-233l-66 -267h264q63 0 62 -49l-2 -8l-17 -63q0 -6 -3 -14.5t-19 -23t-43 -14.5h-285l-59 -247q-14 -55 -66 -52h-65q-6 0 -15.5 2.5t-21.5 19.5t-4 50l55 227h-258l-59 -247q-14 -55 -66 -52h-65q-6 0 -15.5 2.5t-22 19.5t-3.5 50 l55 227h-182q-63 0 -62 50l2 8l17 63q0 6 3 14.5t19 22.5t43 14zM580 670l-66 -267h256l66 267h-256z" />
<glyph unicode="$" horiz-adv-x="993" d="M467 1599h76q23 0 39 -16t16 -43v-98q137 -23 219 -111t103 -219q8 -53 -41 -70l-72 -18q-70 -18 -84 45q-33 135 -125 166l2 -434l141 -74q92 -49 144.5 -139t52.5 -195q0 -156 -89 -264.5t-247 -134.5v-113q0 -25 -16.5 -42t-40.5 -17h-74q-23 0 -39 16.5t-16 42.5v115 q-135 25 -230.5 125t-95.5 285q4 53 60 59h81q6 0 15.5 -2t26 -16.5t16.5 -40.5q0 -166 125 -211v481l-99 51q-211 109 -211 354q0 143 85 236.5t223 120.5v102q0 27 16 43t39 16zM610 575l-10 5v-385q70 23 104.5 79t34.5 119q0 116 -129 182zM303 1075q0 -119 86 -164 l25 -12l-2 332q-109 -41 -109 -156z" />
<glyph unicode="%" horiz-adv-x="1198" d="M971 1374l-445 -1315q-12 -37 -28.5 -48t-51.5 -11h-55q-70 0 -51 59l442 1315q12 37 28.5 48.5t51.5 11.5h58q69 -1 51 -60zM335.5 1223q-67.5 0 -67.5 -82v-164q0 -80 66 -80q70 0 69 80v164q0 82 -67.5 82zM338 1403q106 0 161.5 -66.5t55.5 -171.5v-217 q0 -96 -66.5 -160.5t-152.5 -64.5q-88 0 -152.5 63.5t-64.5 161.5v217q0 102 57.5 170t161.5 68zM948.5 500q-67.5 0 -67.5 -82v-164q0 -80 65 -80q70 0 70 80v164q0 82 -67.5 82zM950 680q106 0 161.5 -66.5t55.5 -171.5v-217q0 -96 -66.5 -160.5t-152.5 -64.5 q-88 0 -152.5 63.5t-64.5 161.5v217q0 102 57.5 170t161.5 68z" />
<glyph unicode="&#x26;" horiz-adv-x="1208" d="M436 614l-57 -51q-78 -70 -100.5 -112.5t-22.5 -114.5q0 -63 50 -120.5t136 -57.5q100 0 185 100l22 27zM932 489h47q25 0 42 -17t17 -40v-59q0 -23 -16 -39.5t-43 -16.5q-29 -2 -38 -3t-25.5 -11t-32.5 -35q33 -57 62.5 -76.5t76.5 -19.5h25q27 0 43 -16.5t16 -40.5v-60 q0 -23 -16.5 -39t-42.5 -16h-33h-19q-59 0 -87.5 4t-71.5 35t-84 94l-17 -18q-66 -72 -131 -100.5t-160 -28.5q-170 0 -267 103.5t-99 246.5q-2 195 147 326l117 104l-41 68q-78 137 -56.5 244.5t110.5 173t204 65.5q125 0 217 -70.5t92 -216.5q0 -27 -15 -43t-40 -16h-76 q-25 0 -40 16.5t-15 42.5q0 43 -28.5 81t-90.5 38q-84 0 -123 -66.5t6 -136.5l345 -534l15 15l14 14q3 3 12.5 11.5t13.5 11.5t13 9t15.5 8t15.5 4t19.5 3t22.5 1z" />
<glyph unicode="'" horiz-adv-x="284" d="M150 1083q-31 0 -44 60l-26 231q0 27 14.5 43.5t36.5 16.5h86q23 0 37 -16.5t14 -43.5l-26 -231q-6 -59 -43 -60h-49z" />
<glyph unicode="(" horiz-adv-x="630" d="M102 588v278q0 647 306 899q25 14 43 11.5t30 -15.5l13 -10l47 -61q35 -45 -11 -82q-106 -94 -157 -260t-51 -482v-278q0 -315 51 -481t157 -261q43 -37 11 -82l-47 -61q-4 -6 -11.5 -12t-31 -14.5t-43.5 12.5q-306 252 -306 899z" />
<glyph unicode=")" horiz-adv-x="712" d="M575 866v-278q0 -647 -305 -899q-25 -14 -43 -11t-30 15l-13 10l-47 61q-35 45 10 82q106 94 157.5 260t51.5 482v278q0 315 -51 481t-158 261q-43 37 -10 82l47 61q4 6 11.5 12t31 14.5t43.5 -12.5q305 -252 305 -899z" />
<glyph unicode="+" horiz-adv-x="643" d="M78 635h198v196q0 25 17.5 42.5t40.5 17.5h59q23 0 39.5 -16.5t16.5 -43.5v-196h194q25 0 42 -16.5t17 -40.5v-60q0 -23 -16 -39t-43 -16h-194v-197q0 -27 -16.5 -43t-39.5 -16h-59q-23 0 -40.5 17.5t-17.5 41.5v197h-198q-27 0 -43.5 16.5t-16.5 38.5v60q0 25 17.5 41 t42.5 16z" />
<glyph unicode="," horiz-adv-x="407" d="M63 -217v20q0 35 43 35q45 0 63.5 40t18.5 122h-32q-23 0 -39.5 16.5t-16.5 42.5v95q0 27 16.5 43t39.5 16h102q23 0 39 -16.5t16 -42.5v-134q0 -123 -48 -197.5t-140 -74.5h-19q-43 0 -43 35z" />
<glyph unicode="-" horiz-adv-x="628" d="M166 635h354q25 0 42.5 -16.5t17.5 -40.5v-60q0 -23 -16.5 -39t-43.5 -16h-354q-27 0 -43.5 16.5t-16.5 38.5v60q0 25 16.5 41t43.5 16z" />
<glyph unicode="." horiz-adv-x="346" d="M145 213h103q23 0 39 -16.5t16 -42.5v-95q0 -27 -16.5 -43t-38.5 -16h-103q-23 0 -39 16.5t-16 42.5v95q0 27 16 43t39 16z" />
<glyph unicode="/" horiz-adv-x="671" d="M705 1446l-496 -1458q-12 -37 -28.5 -48.5t-51.5 -11.5h-55q-70 0 -51 60l493 1458q12 37 28.5 48t51.5 11h57q70 0 52 -59z" />
<glyph unicode="0" horiz-adv-x="970" d="M495.5 1448q182.5 0 278.5 -117t96 -311v-604q0 -190 -102 -310t-272 -120t-271.5 119.5t-101.5 310.5v604q0 195 95 311.5t277.5 116.5zM496 174q90 0 133 63.5t43 211.5v534q0 147 -43 208.5t-133 61.5t-132 -61.5t-42 -208.5v-534q0 -150 42 -212.5t132 -62.5z" />
<glyph unicode="1" horiz-adv-x="862" d="M864 0h-733q-53 4 -59 57v80v6q0 4 3 14.5t9 17.5t17.5 13.5t27.5 6.5h270v1044h-149q-53 4 -60 57v80v6q0 4 3.5 14.5t9.5 17.5t17 13.5t28 6.5h291q53 -4 59 -60v-1179h268q51 -4 58 -58v-80q0 -6 -2 -15t-16.5 -25.5t-41.5 -16.5z" />
<glyph unicode="2" horiz-adv-x="884" d="M489 1448q190 0 283.5 -114.5t93.5 -278.5q0 -227 -155 -422l-353 -438h443q53 -4 59 -58v-84q0 -6 -3 -15t-17.5 -23.5t-38.5 -14.5h-647q-25 0 -39.5 13.5t-16.5 27.5l-4 12v84q0 23 10 43l420 531q92 117 118 181t26 163q0 106 -48.5 161.5t-123.5 55.5 q-80 0 -122 -54.5t-42 -148.5q-2 -55 -64 -59h-80q-6 0 -15 2t-25.5 16t-16.5 41q0 176 98 277.5t260 101.5z" />
<glyph unicode="3" horiz-adv-x="946" d="M123 1069q0 176 98 277.5t260 101.5q178 0 271.5 -106.5t93.5 -290.5q0 -238 -105 -322q121 -98 121 -321q0 -197 -101.5 -308.5t-281.5 -111.5q-106 0 -185 40t-118 104.5t-56.5 128t-17.5 126.5q0 27 14.5 41t26.5 16l15 2h82q6 0 16 -2t27.5 -16t17.5 -41 q0 -100 47 -153.5t131 -53.5q86 0 135.5 49.5t49.5 178.5q0 121 -45.5 177t-108.5 56h-43q-55 4 -61 61v74q0 6 2 15.5t17 26t42 16.5h45q135 0 135 217q0 203 -166 202q-160 0 -159 -184q0 -27 -15.5 -41t-32.5 -16l-14 -2h-80q-6 0 -15 2t-25.5 16t-16.5 41z" />
<glyph unicode="4" horiz-adv-x="940" d="M250 516h297v641zM745 516h76q27 0 42.5 -14.5t17.5 -28.5l2 -14v-76q0 -6 -2 -16.5t-17.5 -27.5t-44.5 -17h-74v-261q0 -27 -14 -42t-31 -17l-14 -2h-78q-6 0 -16 2t-27.5 17.5t-17.5 41.5v261h-445q-29 0 -44 15t-17 32l-2 14v61q0 61 12 82l416 867q25 37 55 41h162 q6 0 16.5 -2t27.5 -17.5t17 -42.5v-856z" />
<glyph unicode="5" horiz-adv-x="915" d="M281 1237v-324q72 37 186 37q180 0 278.5 -116.5t98.5 -290.5v-121q0 -195 -101.5 -315.5t-275.5 -120.5q-180 0 -282.5 110.5t-102.5 309.5q4 53 57 59h84q6 0 15.5 -2t26 -16.5t16.5 -40.5q0 -129 45 -177.5t141 -48.5q178 0 178 242v117q0 223 -178 223 q-80 0 -133 -24.5t-53 -73.5q-4 -53 -58 -60h-84q-6 0 -15 2t-25.5 16.5t-16.5 41.5v708q4 53 57 60h574q51 -4 57 -58v-78q0 -6 -2 -16t-16.5 -26.5t-38.5 -16.5h-432z" />
<glyph unicode="6" horiz-adv-x="933" d="M305 1014v-168q72 68 191 67q180 0 276 -116.5t96 -290.5v-82q0 -197 -101 -316.5t-290 -119.5q-172 0 -271.5 121.5t-99.5 314.5v590q0 209 105.5 321.5t278 112.5t273.5 -109.5t101 -275.5q-4 -57 -57 -64h-80q-6 0 -15.5 2.5t-25.5 17.5t-16 44q0 190 -181 190 q-88 0 -136 -51t-48 -188zM305 496v-66q0 -248 172 -248q94 0 143.5 57.5t49.5 190.5v66q0 223 -172 223q-193 0 -193 -223z" />
<glyph unicode="7" horiz-adv-x="825" d="M119 76l368 862l74 174q31 78 35 127h-500q-53 4 -59 57v80v6q0 4 3 14.5t9 17.5t17.5 13.5t27.5 6.5h643q51 -4 58 -58v-96q0 -109 -62 -246l-420 -993q-20 -41 -59 -41h-86h-21q-8 0 -19 4t-16.5 12.5t-4 22.5t11.5 37z" />
<glyph unicode="8" horiz-adv-x="921" d="M483 852q158 0 158 209q0 113 -42 153.5t-116 40.5q-164 0 -164 -194q0 -209 164 -209zM483 180q80 0 129.5 55.5t49.5 170.5q0 127 -49.5 190t-129.5 63q-82 0 -132 -63.5t-50 -189.5q0 -115 49 -170.5t133 -55.5zM842 1061q0 -197 -117 -303q61 -41 93 -112t37 -119 t5 -121q0 -49 -10 -102.5t-38 -112t-69 -102.5t-108.5 -73.5t-151.5 -29.5q-104 0 -183 43t-120 110.5t-59.5 135t-18.5 131.5q0 238 134 350q-117 106 -117 305q0 66 15.5 126t51 122.5t112.5 100.5t185 38q86 0 152.5 -26.5t104.5 -65.5t61.5 -93.5t32 -102.5t8.5 -99z " />
<glyph unicode="9" horiz-adv-x="942" d="M506 1448q174 0 274.5 -124t100.5 -320v-572q0 -205 -104.5 -325.5t-284.5 -120.5q-176 0 -281 112.5t-105 284.5q0 27 14.5 42t31.5 17l14 2h82q6 0 15 -2t25.5 -17t16.5 -42q0 -102 51.5 -153.5t135.5 -51.5q90 0 139 65.5t49 188.5v141q-78 -55 -184 -55 q-186 0 -290 120t-104 298v68q0 195 112 319.5t292 124.5zM496 711q184 0 184 209v84q0 131 -48 191t-126 60q-88 0 -146.5 -61t-58.5 -190v-64q0 -229 195 -229z" />
<glyph unicode=":" horiz-adv-x="360" d="M158 213h102q23 0 39 -16.5t16 -42.5v-95q0 -27 -16 -43t-39 -16h-102q-23 0 -39.5 16.5t-16.5 42.5v95q0 27 16.5 43t39.5 16zM158 782h102q23 0 39 -16t16 -43v-94q0 -27 -16 -43.5t-39 -16.5h-102q-23 0 -39.5 16.5t-16.5 43.5v94q0 27 16.5 43t39.5 16z" />
<glyph unicode=";" horiz-adv-x="376" d="M174 782h102q23 0 39.5 -16t16.5 -43v-94q0 -27 -16.5 -43.5t-39.5 -16.5h-102q-23 0 -39 16.5t-16 43.5v94q0 27 16 43t39 16zM82 -217v20q0 35 43 35q45 0 63.5 40t18.5 122h-33q-23 0 -39 16.5t-16 42.5v95q0 27 16.5 43t38.5 16h102q23 0 39.5 -16.5t16.5 -42.5v-134 q0 -123 -48 -197.5t-141 -74.5h-18q-43 0 -43 35z" />
<glyph unicode="&#x3c;" horiz-adv-x="667" />
<glyph unicode="=" horiz-adv-x="993" d="M193 807h679q25 0 42.5 -16.5t17.5 -40.5v-60q0 -23 -16.5 -39t-43.5 -16h-679q-27 0 -43.5 16.5t-16.5 38.5v60q0 25 17.5 41t42.5 16zM193 461h679q25 0 42.5 -17.5t17.5 -40.5v-59q0 -23 -16.5 -39t-43.5 -16h-679q-27 0 -43.5 16.5t-16.5 38.5v59q0 23 17.5 40.5 t42.5 17.5z" />
<glyph unicode="?" horiz-adv-x="886" d="M389 213h103q23 0 39 -16.5t16 -42.5v-95q0 -27 -16.5 -43t-38.5 -16h-103q-23 0 -39 16.5t-16 42.5v95q0 27 16 43t39 16zM541 551v-168q-2 -55 -64 -59h-80q-6 0 -15 2t-25.5 16t-16.5 41v168q0 145 61 219l138 164q59 74 59 166q0 90 -41 131t-131 41q-100 0 -132 -48 t-32 -155q-2 -55 -63 -59h-80q-6 0 -15.5 2t-26 16t-16.5 41q0 176 98.5 277.5t260.5 101.5q193 0 285 -98.5t92 -249.5q0 -145 -68 -228l-158 -190q-20 -25 -25 -49.5t-5 -81.5z" />
<glyph unicode="@" horiz-adv-x="1441" d="M682 -332q-293 63 -431 232.5t-138 472.5v348q0 72 12 145.5t54 163.5t108.5 157.5t186.5 114t276 46.5q260 0 448 -160t188 -436v-203q0 -270 -130 -437t-404 -167q-201 0 -321.5 104.5t-120.5 237.5q0 127 52 196.5t189 104.5l244 59v86q0 63 -42 104.5t-105 41.5 q-68 0 -103 -30t-35 -77q0 -27 -15 -43t-40 -16h-76q-25 0 -40 16t-15 43q0 125 91 202t232.5 77t237.5 -94.5t96 -268.5v-385q0 -27 -15 -43t-40 -16h-76q-25 0 -40 16t-15 43v164l-215 -51q-84 -18 -84 -121q0 -59 71.5 -111.5t204.5 -52.5q195 0 261.5 103.5t66.5 336.5 v160q0 152 -69.5 256.5t-167 146.5t-213.5 42q-125 0 -216.5 -42t-140.5 -114t-71.5 -152t-22.5 -168v-307q0 -244 94 -366.5t334 -171.5q55 -12 45 -68l-20 -78q-11 -53 -70 -41z" />
<glyph unicode="A" horiz-adv-x="1122" d="M565 1219h-4l-131 -517h264zM477 1434h170q47 0 62 -50l368 -1318l2 -16q0 -44 -53 -50h-94q-43 0 -58 49l-129 459h-364l-135 -459q-16 -49 -56 -49h-96q-8 0 -18 2t-25 18q-9 10 -9 26q0 9 3 20l373 1318q14 50 59 50z" />
<glyph unicode="B" horiz-adv-x="1044" d="M362 1237v-389h132q117 0 182 50t65 144q0 195 -215 195h-164zM164 1434h362q209 0 312.5 -106.5t103.5 -285t-127 -274.5q164 -88 164 -334q0 -182 -108.5 -308t-323.5 -126h-383v1434zM362 659v-466h185q106 0 169.5 62t63.5 175q0 131 -65.5 180t-184.5 49h-168z" />
<glyph unicode="C" horiz-adv-x="1069" d="M571 1448q188 0 289 -96.5t123 -251.5q1 -8 1 -15q0 -41 -42 -55l-72 -18q-29 -8 -54 5t-30 40q-10 92 -64 144t-151 52q-119 0 -174 -65.5t-55 -206.5v-530q0 -141 55.5 -206t173.5 -65q221 0 222 271q4 53 57 59h82q6 0 16 -2t26.5 -16.5t16.5 -40.5 q0 -211 -101.5 -338t-318.5 -127q-207 0 -317.5 128t-110.5 337v530q0 209 110.5 338t317.5 129z" />
<glyph unicode="D" horiz-adv-x="1103" d="M164 1434h409q217 0 319.5 -127t102.5 -336v-508q0 -209 -102 -336t-320 -127h-409v1434zM362 1241v-1048h211q223 0 224 270v508q0 270 -224 270h-211z" />
<glyph unicode="E" horiz-adv-x="1030" d="M164 1434h723q53 -4 59 -58v-80v-6q0 -4 -3 -14t-9 -17.5t-17.5 -13.5t-27.5 -6h-527v-420h390q53 -4 59 -57v-80v-6q0 -4 -3 -14.5t-9 -17.5t-17.5 -13t-27.5 -6h-392v-430h525q53 -4 59 -58v-80v-6q0 -4 -3 -14t-9 -17.5t-17.5 -13.5t-27.5 -6h-725v1434z" />
<glyph unicode="F" horiz-adv-x="989" d="M164 1434h684q53 -4 59 -58v-84q0 -6 -3 -15t-17.5 -23.5t-38.5 -14.5h-486v-420h351q53 -4 59 -57v-84q0 -6 -3 -15.5t-17.5 -23.5t-38.5 -14h-351v-570q-2 -25 -17 -38t-30 -15l-12 -2h-80q-6 0 -16 2t-26.5 16.5t-16.5 40.5v1375z" />
<glyph unicode="G" horiz-adv-x="1058" d="M537 1448q188 0 288.5 -95.5t122.5 -248.5q2 -10 2 -18q0 -42 -43 -52l-78 -20q-29 -8 -50 6t-25 39q-31 195 -217 194q-115 0 -165 -63.5t-50 -206.5v-530q0 -141 55 -207t174 -66q221 0 221 273v77h-252q-53 4 -59 60v76q0 6 2 16t16.5 26.5t40.5 16.5h391q6 0 16.5 -2 t27 -16.5t16.5 -40.5v-213q0 -211 -101.5 -339t-318.5 -128q-207 0 -317.5 129t-110.5 338v530q0 211 104.5 338t309.5 127z" />
<glyph unicode="H" horiz-adv-x="1140" d="M221 1434h80q6 0 16.5 -2t27.5 -16.5t17 -41.5v-534h453v534q4 53 57 60h80q6 0 16.5 -2t28 -16.5t17.5 -41.5v-1315q-4 -53 -60 -59h-80q-6 0 -16 2t-26.5 16.5t-16.5 40.5v586h-453v-586q-4 -53 -59 -59h-80q-6 0 -16 2t-26.5 16.5t-16.5 40.5v1315q4 54 57 60z" />
<glyph unicode="I" d="M221 1434h80q6 0 16.5 -2t27.5 -16.5t17 -41.5v-1315q-4 -53 -59 -59h-80q-6 0 -16 2t-26.5 16.5t-16.5 40.5v1315q4 54 57 60z" />
<glyph unicode="J" horiz-adv-x="716" d="M487 1434h82q6 0 16.5 -2t27 -16.5t16.5 -41.5v-921q0 -205 -126 -336t-349 -131q-27 0 -42.5 14t-17.5 29l-2 16v74q0 6 2 16t17.5 27.5t42.5 17.5q276 0 276 273v921q4 54 57 60z" />
<glyph unicode="K" horiz-adv-x="1116" d="M221 1434h82q6 0 16.5 -2t26.5 -16.5t16 -41.5v-528l388 547q20 41 63 41h92h10q6 0 19.5 -5.5t22 -13.5t8.5 -25.5t-15 -39.5l-370 -533l286 -512q35 -59 59.5 -84.5t59.5 -25.5h10q55 -4 62 -62v-72q0 -6 -2 -16t-17.5 -27.5t-42.5 -17.5h-41q-90 0 -150.5 49 t-129.5 170l-238 410l-74 -105v-465q-4 -53 -57 -59h-84q-6 0 -15 2t-25.5 16.5t-16.5 40.5v1315q4 54 57 60z" />
<glyph unicode="L" horiz-adv-x="876" d="M221 1434h82q6 0 16.5 -2t26.5 -16.5t16 -41.5v-1179h408q27 0 42 -14.5t17 -28.5l2 -15v-78q0 -6 -2 -16t-17 -26.5t-42 -16.5h-606v1374q4 54 57 60z" />
<glyph unicode="M" horiz-adv-x="1241" d="M223 1434h121q41 0 64 -45l229 -537l227 537q20 45 64 45h116q6 0 16.5 -2t28 -16.5t17.5 -41.5v-1315q0 -6 -2 -16t-17.5 -26.5t-42.5 -16.5h-75q-6 0 -16.5 2t-28 16.5t-17.5 40.5l21 1012l-183 -459q-18 -43 -57 -43h-92q-43 0 -61 43l-193 469l20 -1022q0 -6 -2 -16 t-16 -26.5t-41 -16.5h-80q-6 0 -16 2t-26.5 16.5t-16.5 40.5v1315q0 6 2 16.5t16 27t41 16.5z" />
<glyph unicode="N" horiz-adv-x="1159" d="M223 1434h123q41 0 64 -45l432 -1033l-13 1018q0 6 2.5 16.5t16.5 27t41 16.5h80q6 0 16 -2t26.5 -16.5t16.5 -41.5v-1315q0 -6 -2 -16t-16.5 -26.5t-40.5 -16.5h-123q-45 0 -64 43l-430 1034l10 -1018q0 -6 -2 -16t-16 -26.5t-41 -16.5h-80q-6 0 -16 2t-26.5 16.5 t-16.5 40.5v1315q0 6 2 16.5t16 27t41 16.5z" />
<glyph unicode="O" horiz-adv-x="1101" d="M569 1448q217 0 320.5 -129t103.5 -338v-530q0 -209 -103.5 -337t-320.5 -128t-321.5 128t-104.5 337v530q0 209 104.5 338t321.5 129zM569 1253q-227 0 -227 -272v-530q0 -270 227 -271q225 0 226 271v530q-1 272 -226 272z" />
<glyph unicode="P" horiz-adv-x="1040" d="M164 1434h344q219 0 323.5 -120t104.5 -325v-51q0 -205 -104.5 -323.5t-323.5 -118.5h-146v-437q-4 -53 -57 -59h-82q-6 0 -16 2t-26.5 16.5t-16.5 40.5v1375zM362 1243v-555h146q229 0 229 250v51q0 254 -229 254h-146z" />
<glyph unicode="Q" horiz-adv-x="1146" d="M569 1448q217 0 321.5 -129t104.5 -338v-530q0 -186 -71 -263h73q25 0 40.5 -14t17.5 -27l2 -14v-72q0 -6 -2 -16t-16.5 -27.5t-41.5 -17.5h-43q-168 0 -190 25q-82 -39 -195 -39q-217 0 -321.5 128t-104.5 337v530q0 209 104.5 338t321.5 129zM569.5 1253 q-225.5 0 -225.5 -272v-530q0 -270 225 -271q35 0 52 4l-97 154q-14 24 -14 40q0 33 53 40l15 2h73q43 0 62 -33l55 -88q27 63 27 152v530q0 272 -225.5 272z" />
<glyph unicode="R" horiz-adv-x="1110" d="M166 1434h360q428 0 428 -426q0 -166 -61.5 -260.5t-185.5 -145.5l147 -311q55 -96 107 -96h30q27 0 41.5 -15.5t16.5 -32.5l2 -14v-72q0 -6 -2 -16t-16.5 -27.5t-41.5 -17.5h-43q-90 0 -150.5 49t-129.5 172l-160 348h-143v-510q-4 -53 -58 -59h-82q-6 0 -16 2 t-26.5 16.5t-16.5 40.5v1375zM365 1241v-477h161q121 0 175.5 60.5t54.5 187.5q0 131 -57.5 180t-172.5 49h-161z" />
<glyph unicode="S" horiz-adv-x="995" d="M510 1448q178 0 282.5 -92t127.5 -244q1 -8 1 -14q0 -41 -42 -56l-72 -18q-16 -4 -29 -4q-44 0 -55 49q-23 96 -72 137t-141 41q-106 0 -156.5 -51t-50.5 -121q0 -119 86 -164l352 -184q92 -49 144.5 -139t52.5 -195q0 -178 -114.5 -292.5t-313.5 -114.5 q-70 0 -138.5 21.5t-134 66.5t-106.5 131t-41 201q4 53 60 59h81q6 0 15.5 -2t26 -16.5t16.5 -40.5q0 -125 64.5 -175.5t156.5 -50.5q115 0 172 64.5t57 148.5q0 117 -129 182l-295 152q-211 109 -211 354q0 170 117 268.5t289 98.5z" />
<glyph unicode="T" horiz-adv-x="985" d="M141 1434h738q53 -4 59 -58v-78q0 -6 -2 -16t-16.5 -26.5t-40.5 -16.5h-271v-1180q-4 -53 -57 -59h-82q-6 0 -16.5 2t-26.5 16.5t-16 40.5v1180h-269q-53 4 -59 57v78q0 6 2 16.5t16 27t41 16.5z" />
<glyph unicode="U" horiz-adv-x="1073" d="M190 1434h82q6 0 16.5 -2t27 -16.5t16.5 -41.5v-866q0 -184 53 -256t174 -72q111 0 167 74t56 254v866q4 53 58 60h82q6 0 16 -2t26.5 -16.5t16.5 -41.5v-856q0 -233 -103.5 -382.5t-318.5 -149.5q-211 0 -318.5 149.5t-107.5 382.5v856q4 54 57 60z" />
<glyph unicode="V" horiz-adv-x="1095" d="M145 1434h93q41 0 57 -50l272 -1128h15l268 1128q14 49 57 50h92q8 0 18.5 -2t25.5 -19q10 -11 10 -26q0 -8 -2 -19l-330 -1319q-6 -23 -21.5 -35t-27.5 -14h-13h-172q-51 0 -63 51l-330 1317q-1 7 -1 14q0 47 52 52z" />
<glyph unicode="W" horiz-adv-x="1542" d="M154 1434h92q45 0 57 -50l201 -1128l188 1018q12 59 64 59h86q53 0 65 -59l187 -1018l202 1130q12 49 58 50h92q8 0 18.5 -2t24.5 -19q10 -11 10 -29q0 -7 -2 -16l-252 -1319q-4 -23 -20.5 -36t-28.5 -15h-14h-172q-53 0 -68 57l-143 887l-146 -893q-4 -23 -20.5 -36 t-30.5 -15h-12h-174q-49 0 -62 51l-252 1317q-1 6 0 11q0 49 52 55z" />
<glyph unicode="X" horiz-adv-x="1169" d="M242 1434h90q41 0 61 -35l236 -434l233 434q18 35 62 35h90q23 0 33 -1t22 -7.5t10 -20.5t-14 -37l-326 -600l389 -702q15 -27 15 -41q0 -11 -10 -17q-12 -6 -22.5 -7t-33.5 -1h-90q-43 0 -61 35l-303 545l-297 -545q-20 -35 -62 -35h-90q-23 0 -33 1t-22 7q-11 5 -11 17 q0 14 15 41l391 714l-324 588q-12 23 -14 37t10.5 20.5t22.5 7.5t33 1z" />
<glyph unicode="Y" horiz-adv-x="1103" d="M152 1434h112q43 0 58 -50l282 -708h21l252 708q16 49 57 50h98q18 0 28.5 -2t24.5 -18q7 -7 7 -18q0 -12 -9 -28l-479 -1319q-12 -33 -24.5 -41t-32.5 -8h-94q-18 0 -28.5 2t-25 17.5t1.5 46.5l134 364h-19q-25 0 -37 31l-364 907q-9 25 -9 39q0 9 4 14q9 13 42 13z" />
<glyph unicode="Z" horiz-adv-x="1099" d="M193 1434h735q6 0 15 -3.5t23.5 -17.5t14.5 -39v-90q0 -20 -10 -43l-600 -1046h571q53 -4 59 -58v-84q0 -6 -3 -15t-17 -23.5t-39 -14.5h-749q-25 0 -39.5 13.5t-18.5 27.5l-2 12v84q0 23 10 43l602 1059h-552q-53 4 -60 57v84q0 6 3 15.5t17.5 24t39.5 14.5z" />
<glyph unicode="_" horiz-adv-x="1077" d="M131 -51h895q27 0 43 -17.5t16 -40.5v-41q0 -23 -16 -39t-43 -16h-895q-27 0 -43 16.5t-16 38.5v41q0 23 17 40.5t42 17.5z" />
<glyph unicode="`" horiz-adv-x="292" />
<glyph unicode="a" horiz-adv-x="882" d="M375 403q-96 -23 -96 -114q0 -51 36.5 -91t94.5 -40q76 0 128 60.5t52 133.5v103zM442.5 1038q141.5 0 237.5 -94t96 -268v-617q0 -27 -16.5 -43t-38.5 -16h-72q-23 0 -39 16.5t-16 42.5v19q-27 -41 -85 -66.5t-120 -25.5q-123 0 -210 86t-87 208.5t56.5 191.5t197.5 103 l244 60v86q0 63 -42 104t-106 41q-68 0 -102.5 -29.5t-34.5 -76.5q0 -27 -15.5 -43.5t-39.5 -16.5h-76q-25 0 -40 16.5t-15 43.5q0 125 91 201.5t232.5 76.5z" />
<glyph unicode="b" horiz-adv-x="940" d="M199 1434h75q23 0 39.5 -16.5t16.5 -43.5v-411q51 76 188 75q147 0 230 -92t83 -266v-346q0 -150 -89 -249t-232 -99q-131 0 -184 92v-19q0 -27 -16.5 -43t-39.5 -16h-71q-23 0 -39.5 16.5t-16.5 42.5v1315q0 27 16.5 43.5t39.5 16.5zM492 866q-84 0 -124 -51t-40 -121 v-370q0 -74 47 -120t125 -46q68 0 106.5 41t38.5 125v370q1 172 -153 172z" />
<glyph unicode="c" horiz-adv-x="923" d="M479 1038q117 0 208 -57t116 -186q1 -7 1 -14q0 -40 -44 -52l-70 -16q-11 -3 -20 -3q-39 0 -49 48q-23 109 -142 108q-82 0 -121 -50t-39 -161v-303q0 -195 160 -194q74 0 115 45t41 104q0 27 14.5 42.5t30.5 17.5l14 2h64q63 0 63 -64q0 -86 -32.5 -151.5t-86 -100.5 t-109.5 -51t-114 -16q-170 0 -258 93t-88 273v303q0 195 102.5 289t243.5 94z" />
<glyph unicode="d" horiz-adv-x="907" d="M416 1038q45 0 101 -20.5t85 -54.5v409q4 53 57 60h76q23 0 38 -16.5t15 -43.5v-1313q0 -27 -16 -43t-39 -16h-71q-23 0 -39.5 16.5t-16.5 42.5v19q-76 -92 -194 -92q-145 0 -227.5 89t-82.5 257v346q0 162 77 261t237 99zM438 866q-150 0 -149 -174v-375 q0 -160 141 -159q172 0 172 159v375q0 92 -49 133t-115 41z" />
<glyph unicode="e" horiz-adv-x="925" d="M492 1038q143 0 236 -80.5t93 -214.5v-137q0 -96 -98 -112l-404 -76v-101q2 -68 45.5 -113.5t112.5 -45.5q82 0 120 45t38 110q0 27 14.5 42.5t30.5 17.5l14 2h64q63 0 63 -64q0 -139 -94 -232t-250 -93q-152 0 -248 94t-96 237v363q0 158 95.5 258t263.5 100zM481 866 q-84 0 -123 -47t-39 -123v-102l316 61v88q0 59 -42 91t-112 32z" />
<glyph unicode="f" horiz-adv-x="649" d="M233 1106q0 156 83 242t245 86h41q25 0 42.5 -16.5t17.5 -41.5v-59q0 -23 -16.5 -39t-43.5 -16h-41q-88 0 -114.5 -41t-26.5 -115v-100h170q25 0 42 -17.5t17 -40.5v-59q0 -23 -16.5 -39t-42.5 -16h-170v-775q0 -27 -17.5 -43t-40.5 -16h-73q-23 0 -39.5 16.5t-16.5 42.5 v775h-40q-27 0 -43.5 16t-16.5 39v59q0 23 17.5 40.5t42.5 17.5h40v100z" />
<glyph unicode="g" horiz-adv-x="987" d="M463 1038h160q80 0 110 27l29 27q19 20 40 20q20 0 42 -18l43 -39q20 -20 20 -41t-20 -41l-19 -23q-49 -59 -120 -73q43 -41 54 -89.5t11 -123.5v-56q0 -137 -100.5 -231t-249.5 -94q-66 0 -111 22l-65 -82q-18 -27 -8 -38t47 -9l317 10q6 0 12 1q98 0 156 -64 q61 -68 61 -186q0 -37 -8 -79t-32.5 -97.5t-63.5 -98.5t-107.5 -72.5t-156.5 -29.5q-168 0 -267.5 64.5t-99.5 170.5q0 57 15.5 113.5t31.5 85.5l15 29q-45 4 -75 34.5t-34 69.5q-1 10 -1 21q0 66 56 139l72 90q-90 90 -90 244v43q0 170 88 272t248 102zM469 866 q-80 0 -118 -60.5t-38 -141.5v-54q0 -59 39 -107t111 -48q66 0 115 45t49 110v54q0 202 -158 202zM598 20l-225 -8q-61 -84 -62 -180q0 -49 48.5 -76.5t125.5 -27.5q90 0 152 53q59 52 59 137q0 102 -91 103q-3 -1 -7 -1z" />
<glyph unicode="h" horiz-adv-x="942" d="M209 1434h76q23 0 39 -16.5t16 -43.5v-422q10 27 58 56.5t132 29.5q145 0 225.5 -91t80.5 -267v-621q0 -27 -16.5 -43t-39.5 -16h-75q-23 0 -39.5 16.5t-16.5 42.5v635q0 172 -145 172q-84 0 -124 -51t-40 -121v-635q0 -27 -16.5 -43t-38.5 -16h-76q-23 0 -39 16.5 t-16 42.5v1315q0 27 16 43.5t39 16.5z" />
<glyph unicode="i" d="M217 1024h76q23 0 39 -16.5t16 -42.5v-906q0 -27 -16.5 -43t-40.5 -16h-74q-23 0 -39 16.5t-16 42.5v906q0 27 16 43t39 16zM303 1434q23 0 39 -16.5t16 -43.5v-106q0 -27 -16 -43.5t-39 -16.5h-94q-23 0 -39 16.5t-16 43.5v106q0 27 16 43.5t39 16.5h94z" />
<glyph unicode="j" horiz-adv-x="505" d="M270 1434h95q23 0 39 -16.5t16 -43.5v-106q0 -27 -16.5 -43.5t-38.5 -16.5h-95q-23 0 -39 16.5t-16 43.5v106q0 27 16 43.5t39 16.5zM279 1024h73q23 0 39.5 -16.5t16.5 -42.5v-998q0 -156 -83 -241.5t-245 -85.5h-41q-27 0 -43 16t-16 41v59q0 23 16 39.5t43 16.5h41 q88 0 114.5 41t26.5 114v998q0 27 16.5 43t41.5 16z" />
<glyph unicode="k" horiz-adv-x="858" d="M199 1434h73q23 0 40.5 -16.5t17.5 -43.5v-696l254 305q31 41 63 41h111h4q2 0 9 -2t12 -5t9.5 -8t5.5 -13.5t-4.5 -20.5t-17.5 -29l-287 -344l158 -323q57 -106 127 -107h31q27 0 43 -16.5t16 -40.5v-60q0 -23 -16.5 -39t-42.5 -16h-41q-88 0 -152.5 47t-126.5 158 l-125 264l-30 -35v-375q0 -27 -17.5 -43t-40.5 -16h-73q-23 0 -39.5 16.5t-16.5 42.5v1315q0 27 16.5 43.5t39.5 16.5z" />
<glyph unicode="l" horiz-adv-x="528" d="M203 1434h73q23 0 40.5 -16.5t17.5 -43.5v-1061q0 -47 7 -76.5t40 -54t94 -24.5h41q27 0 43 -16.5t16 -39.5v-59q0 -23 -17 -40t-42 -17h-41q-162 0 -245 86t-83 241v1061q0 27 16.5 43.5t39.5 16.5z" />
<glyph unicode="m" horiz-adv-x="1363" d="M199 1024h75q23 0 39.5 -16.5t16.5 -42.5v-15q53 88 188 88q115 0 180 -98q63 98 222 98q305 0 305 -358v-621q-4 -53 -58 -59h-69q-6 0 -16.5 2t-27 16.5t-16.5 40.5v621q0 88 -24.5 137t-93.5 49q-45 0 -86 -39t-41 -88v-680q-4 -53 -58 -59h-71q-6 0 -15.5 2t-26 16.5 t-16.5 40.5v680q0 49 -28.5 88t-88.5 39q-82 0 -120.5 -56t-38.5 -130v-621q-4 -53 -60 -59h-69q-6 0 -15.5 2t-26 16.5t-16.5 40.5v906q0 27 16.5 43t39.5 16z" />
<glyph unicode="n" horiz-adv-x="933" d="M199 1024h75q23 0 39.5 -16.5t16.5 -42.5v-13q18 29 70.5 57.5t119.5 28.5q145 0 225 -91t80 -267v-621q0 -27 -16 -43t-39 -16h-76q-23 0 -39 16.5t-16 42.5v635q0 172 -145 172q-84 0 -124 -51t-40 -121v-635q0 -27 -16.5 -43t-39.5 -16h-75q-23 0 -39.5 16.5 t-16.5 42.5v906q0 27 16.5 43t39.5 16z" />
<glyph unicode="o" horiz-adv-x="864" d="M446.5 866q-157.5 0 -157.5 -207v-307q0 -195 155 -194q160 0 160 194v307q0 207 -157.5 207zM449 -14h-5q-156 0 -249 97t-93 269v307q0 195 91.5 287t253 92t253 -92t91.5 -287v-307q0 -172 -93 -269t-249 -97z" />
<glyph unicode="p" horiz-adv-x="862" d="M147 1024h76q23 0 39.5 -16.5t16.5 -42.5v-13q23 35 75 60.5t113 25.5q147 0 230 -92t83 -266v-346q0 -150 -86 -249t-219 -99q-59 0 -117.5 24.5t-83.5 67.5v-453q0 -27 -16 -43t-39 -16h-72q-23 0 -39 16.5t-16 42.5v1340q0 27 16 43t39 16zM440 866q-84 0 -124 -51 t-40 -121v-370q0 -74 47.5 -120t125.5 -46q68 0 106.5 41t38.5 125v370q0 172 -154 172z" />
<glyph unicode="q" horiz-adv-x="903" d="M289 692v-360q0 -86 40 -130t93 -44q84 0 132 59t48 137v338q0 92 -49 133t-115 41q-149 0 -149 -174zM102 332v346q0 162 77 261t237 99q47 0 102 -21.5t84 -64.5v27q4 53 57 59h76q23 0 38 -16t15 -43v-1354q0 -27 -16 -43t-39 -16h-71q-23 0 -39.5 16.5t-16.5 42.5 v453q-27 -41 -83 -66.5t-117 -25.5q-119 0 -211.5 93t-92.5 253z" />
<glyph unicode="r" horiz-adv-x="544" d="M547 1038q27 0 43 -16t16 -39v-59q0 -23 -16.5 -40.5t-42.5 -17.5q-217 0 -217 -172v-635q0 -27 -16.5 -43t-39.5 -16h-75q-23 0 -39.5 16.5t-16.5 42.5v906q0 27 16.5 43t39.5 16h75q23 0 39.5 -16.5t16.5 -42.5v-13q51 51 91 68.5t126 17.5z" />
<glyph unicode="s" horiz-adv-x="851" d="M297 311q0 -154 147 -153q57 0 90 35.5t33 82.5q0 80 -90 134l-168 98q-156 92 -155 252q0 111 77.5 194.5t210.5 83.5q272 0 303 -229q1 -6 1 -11q0 -47 -48 -59l-59 -8q-23 -2 -43.5 12.5t-24.5 42.5q-14 86 -122 86q-43 0 -80 -32.5t-37 -79.5q0 -63 78 -109l145 -82 q193 -106 193 -293q0 -115 -85 -202.5t-221 -87.5q-94 0 -161.5 32.5t-101.5 86t-48 105.5t-14 103q0 27 14 42.5t29 17.5l14 2h59q64 -1 64 -64z" />
<glyph unicode="t" horiz-adv-x="698" d="M604 0h-33q-166 0 -246.5 76t-80.5 252v506h-45q-51 4 -58 57v55q0 6 2 16.5t16.5 27t39.5 16.5h45v329q4 51 57 58h70q6 0 16 -2t26.5 -16.5t16.5 -39.5v-329h158q53 -4 59 -58v-55q0 -6 -2 -16.5t-16.5 -26.5t-40.5 -16h-158v-506q0 -156 141 -156h33q53 -2 58 -55v-58 q0 -6 -2.5 -16t-16.5 -26.5t-39 -16.5z" />
<glyph unicode="u" horiz-adv-x="923" d="M834 965v-906q0 -27 -16.5 -43t-39.5 -16h-71q-23 0 -39.5 16.5t-16.5 42.5v19q-66 -92 -192 -92q-145 0 -235.5 97t-90.5 263v619q0 27 16.5 43t38.5 16h76q23 0 39 -16.5t16 -42.5v-633q0 -88 46.5 -131t111.5 -43q78 0 124 45t46 129v633q0 27 16.5 43t38.5 16h76 q23 0 39.5 -16t16.5 -43z" />
<glyph unicode="v" horiz-adv-x="808" d="M317 59l-264 906q-3 10 -3 18q0 16 10 26q15 15 44 15h91q49 0 65 -59l180 -736l176 736q16 59 66 59h90q29 0 44 -15q10 -10 10 -26q0 -8 -3 -18l-262 -902q-16 -63 -57 -63h-125q-46 0 -62 59z" />
<glyph unicode="w" horiz-adv-x="1282" d="M639 1024h104q49 0 66 -59l170 -734l129 734q16 59 66 59h90q29 0 44 -15q10 -10 10 -26q0 -8 -3 -18l-205 -906q-16 -59 -61 -59h-140q-43 0 -57 63l-162 670l-160 -670q-14 -63 -57 -63h-137q-45 0 -62 59l-206 906q-3 10 -3 18q0 16 10 26q15 15 44 15h90q49 0 65 -59 l129 -734l170 734q17 59 66 59z" />
<glyph unicode="x" horiz-adv-x="811" d="M604 59l-168 306l-162 -306q-29 -59 -77 -59h-80q-37 0 -51 15q-7 8 -7.5 19t7.5 25l270 471l-221 437q-14 29 0 44t51 15h55q47 0 78 -59l147 -291l152 289q33 59 90 59h53q37 0 51.5 -15.5t0.5 -43.5l-240 -459l254 -447q7 -14 7 -25t-7 -19q-14 -15 -51 -15h-62 q-59 0 -90 59z" />
<glyph unicode="y" horiz-adv-x="811" d="M150 -406q-27 0 -41.5 15.5t-16.5 30.5l-2 16v72q0 6 2 16t16.5 27.5t41.5 17.5q125 0 145 78l33 133h-11q-25 0 -36 31l-224 934q-3 10 -3 18q0 16 11 26q15 15 44 15h90q49 0 65 -59l142 -701h4l180 701q16 59 65 59h90q29 0 45 -15q10 -10 10 -26q0 -8 -3 -18 l-320 -1129q-39 -141 -115.5 -191.5t-211.5 -50.5z" />
<glyph unicode="z" horiz-adv-x="888" d="M170 1024h584q25 0 42 -16.5t17 -40.5v-52q0 -16 -29 -63l-452 -680h444q27 0 43.5 -16.5t16.5 -38.5v-60q0 -25 -16.5 -41t-43.5 -16h-626q-27 0 -43.5 16.5t-16.5 40.5v52q0 16 29 63l450 680h-399q-27 0 -43 16.5t-16 38.5v60q0 25 16 41t43 16z" />
<glyph unicode="&#xa8;" horiz-adv-x="702" d="M152 1413h94q23 0 39 -16.5t16 -42.5v-86q0 -27 -16.5 -43.5t-38.5 -16.5h-94q-23 0 -39.5 16.5t-16.5 43.5v86q0 27 16.5 43t39.5 16zM553 1413h94q23 0 39 -16.5t16 -42.5v-86q0 -27 -16 -43.5t-39 -16.5h-94q-23 0 -39 16.5t-16 43.5v86q0 27 16 43t39 16z" />
<glyph unicode="&#xaa;" horiz-adv-x="882" d="M375 403q-96 -23 -96 -114q0 -51 36.5 -91t94.5 -40q76 0 128 60.5t52 133.5v103zM442.5 1038q141.5 0 237.5 -94t96 -268v-617q0 -27 -16.5 -43t-38.5 -16h-72q-23 0 -39 16.5t-16 42.5v19q-27 -41 -85 -66.5t-120 -25.5q-123 0 -210 86t-87 208.5t56.5 191.5t197.5 103 l244 60v86q0 63 -42 104t-106 41q-68 0 -102.5 -29.5t-34.5 -76.5q0 -27 -15.5 -43.5t-39.5 -16.5h-76q-25 0 -40 16.5t-15 43.5q0 125 91 201.5t232.5 76.5z" />
<glyph unicode="&#xab;" horiz-adv-x="755" d="M274 485l136 -247q14 -29 -0.5 -44.5t-51.5 -15.5h-45q-55 0 -86 55l-135 252l135 252q31 55 86 56h45q37 0 51.5 -15.5t0.5 -44.5zM567 485l135 -247q14 -29 0 -44.5t-51 -15.5h-45q-55 0 -86 55l-135 252l135 252q31 55 86 56h45q37 0 51.5 -15.5t-0.5 -44.5z" />
<glyph unicode="&#xad;" horiz-adv-x="628" d="M166 635h354q25 0 42.5 -16.5t17.5 -40.5v-60q0 -23 -16.5 -39t-43.5 -16h-354q-27 0 -43.5 16.5t-16.5 38.5v60q0 25 16.5 41t43.5 16z" />
<glyph unicode="&#xb2;" horiz-adv-x="884" d="M489 1448q190 0 283.5 -114.5t93.5 -278.5q0 -227 -155 -422l-353 -438h443q53 -4 59 -58v-84q0 -6 -3 -15t-17.5 -23.5t-38.5 -14.5h-647q-25 0 -39.5 13.5t-16.5 27.5l-4 12v84q0 23 10 43l420 531q92 117 118 181t26 163q0 106 -48.5 161.5t-123.5 55.5 q-80 0 -122 -54.5t-42 -148.5q-2 -55 -64 -59h-80q-6 0 -15 2t-25.5 16t-16.5 41q0 176 98 277.5t260 101.5z" />
<glyph unicode="&#xb3;" horiz-adv-x="946" d="M123 1069q0 176 98 277.5t260 101.5q178 0 271.5 -106.5t93.5 -290.5q0 -238 -105 -322q121 -98 121 -321q0 -197 -101.5 -308.5t-281.5 -111.5q-106 0 -185 40t-118 104.5t-56.5 128t-17.5 126.5q0 27 14.5 41t26.5 16l15 2h82q6 0 16 -2t27.5 -16t17.5 -41 q0 -100 47 -153.5t131 -53.5q86 0 135.5 49.5t49.5 178.5q0 121 -45.5 177t-108.5 56h-43q-55 4 -61 61v74q0 6 2 15.5t17 26t42 16.5h45q135 0 135 217q0 203 -166 202q-160 0 -159 -184q0 -27 -15.5 -41t-32.5 -16l-14 -2h-80q-6 0 -15 2t-25.5 16t-16.5 41z" />
<glyph unicode="&#xb9;" horiz-adv-x="862" d="M864 0h-733q-53 4 -59 57v80v6q0 4 3 14.5t9 17.5t17.5 13.5t27.5 6.5h270v1044h-149q-53 4 -60 57v80v6q0 4 3.5 14.5t9.5 17.5t17 13.5t28 6.5h291q53 -4 59 -60v-1179h268q51 -4 58 -58v-80q0 -6 -2 -15t-16.5 -25.5t-41.5 -16.5z" />
<glyph unicode="&#xba;" horiz-adv-x="864" d="M446.5 866q-157.5 0 -157.5 -207v-307q0 -195 155 -194q160 0 160 194v307q0 207 -157.5 207zM449 -14h-5q-156 0 -249 97t-93 269v307q0 195 91.5 287t253 92t253 -92t91.5 -287v-307q0 -172 -93 -269t-249 -97z" />
<glyph unicode="&#xbb;" horiz-adv-x="757" d="M440 238l135 247l-135 248q-14 29 0.5 44.5t51.5 15.5h45q55 0 86 -56l135 -252l-135 -252q-31 -55 -86 -55h-45q-37 0 -51.5 15.5t-0.5 44.5zM147 238l136 247l-136 248q-14 29 0.5 44.5t51.5 15.5h45q55 0 86 -56l135 -252l-135 -252q-31 -55 -86 -55h-45 q-37 0 -51.5 15.5t-0.5 44.5z" />
<glyph unicode="&#xc0;" horiz-adv-x="1122" d="M565 1219h-4l-131 -517h264zM477 1434h170q47 0 62 -50l368 -1318l2 -16q0 -44 -53 -50h-94q-43 0 -58 49l-129 459h-364l-135 -459q-16 -49 -56 -49h-96q-8 0 -18 2t-25 18q-9 10 -9 26q0 9 3 20l373 1318q14 50 59 50z" />
<glyph unicode="&#xc4;" horiz-adv-x="1183" d="M604 1219h-4l-131 -517h264zM516 1434h170q47 0 62 -50l368 -1318q10 -59 -51 -66h-94q-41 0 -58 49l-129 459h-364l-135 -459q-14 -49 -56 -49h-96q-8 0 -18.5 2t-24.5 18.5t-6 45.5l373 1318q14 50 59 50zM369 1782h94q23 0 39 -16.5t16 -43.5v-86q0 -27 -16.5 -43 t-38.5 -16h-94q-23 0 -39.5 16.5t-16.5 42.5v86q0 27 16.5 43.5t39.5 16.5zM770 1782h94q23 0 39.5 -16.5t16.5 -43.5v-86q0 -27 -16.5 -43t-39.5 -16h-94q-23 0 -39 16.5t-16 42.5v86q0 27 16 43.5t39 16.5z" />
<glyph unicode="&#xc8;" horiz-adv-x="1030" d="M164 1434h723q53 -4 59 -58v-80v-6q0 -4 -3 -14t-9 -17.5t-17.5 -13.5t-27.5 -6h-527v-420h390q53 -4 59 -57v-80v-6q0 -4 -3 -14.5t-9 -17.5t-17.5 -13t-27.5 -6h-392v-430h525q53 -4 59 -58v-80v-6q0 -4 -3 -14t-9 -17.5t-17.5 -13.5t-27.5 -6h-725v1434z" />
<glyph unicode="&#xcb;" horiz-adv-x="1007" d="M123 1434h723q53 -4 59 -58v-80v-6q0 -4 -3 -14t-9 -17.5t-17.5 -13.5t-27.5 -6h-526v-420h389q53 -4 59 -57v-80v-6q0 -4 -3 -14.5t-9 -17.5t-17.5 -13t-27.5 -6h-391v-430h524q53 -4 59 -58v-80v-6q0 -4 -3 -14t-9 -17.5t-17.5 -13.5t-27.5 -6h-725v1434zM186 1782h95 q23 0 39 -16.5t16 -43.5v-86q0 -27 -16.5 -43t-38.5 -16h-95q-23 0 -39 16.5t-16 42.5v86q0 27 16 43.5t39 16.5zM588 1782h94q23 0 39 -16.5t16 -43.5v-86q0 -27 -16 -43t-39 -16h-94q-23 0 -39.5 16.5t-16.5 42.5v86q0 27 16.5 43.5t39.5 16.5z" />
<glyph unicode="&#xcc;" d="M221 1434h80q6 0 16.5 -2t27.5 -16.5t17 -41.5v-1315q-4 -53 -59 -59h-80q-6 0 -16 2t-26.5 16.5t-16.5 40.5v1315q4 54 57 60z" />
<glyph unicode="&#xcf;" d="M13 1775h94q23 0 39 -16.5t16 -42.5v-86q0 -27 -16.5 -43.5t-38.5 -16.5h-94q-23 0 -39.5 16.5t-16.5 43.5v86q0 27 16.5 43t39.5 16zM414 1775h94q23 0 39 -16.5t16 -42.5v-86q0 -27 -16 -43.5t-39 -16.5h-94q-23 0 -39 16.5t-16 43.5v86q0 27 16 43t39 16zM221 1434h80 q6 0 16.5 -2t27.5 -16.5t17 -41.5v-1315q-4 -53 -59 -59h-80q-6 0 -16 2t-26.5 16.5t-16.5 40.5v1315q4 54 57 60z" />
<glyph unicode="&#xd2;" horiz-adv-x="1101" d="M569 1448q217 0 320.5 -129t103.5 -338v-530q0 -209 -103.5 -337t-320.5 -128t-321.5 128t-104.5 337v530q0 209 104.5 338t321.5 129zM569 1253q-227 0 -227 -272v-530q0 -270 227 -271q225 0 226 271v530q-1 272 -226 272z" />
<glyph unicode="&#xd6;" horiz-adv-x="1097" d="M551 1448q217 0 320.5 -129t103.5 -338v-530q0 -209 -103.5 -337t-320.5 -128t-321.5 128t-104.5 337v530q0 209 104.5 338t321.5 129zM551 1253q-227 0 -227 -272v-530q0 -270 227 -271q225 0 225 271v530q0 272 -225 272zM287 1782h94q23 0 39 -16.5t16 -43.5v-86 q0 -27 -16.5 -43t-38.5 -16h-94q-23 0 -39.5 16.5t-16.5 42.5v86q0 27 16.5 43.5t39.5 16.5zM688 1782h94q23 0 39.5 -16.5t16.5 -43.5v-86q0 -27 -16.5 -43t-39.5 -16h-94q-23 0 -39 16.5t-16 42.5v86q0 27 16 43.5t39 16.5z" />
<glyph unicode="&#xd9;" horiz-adv-x="1073" d="M190 1434h82q6 0 16.5 -2t27 -16.5t16.5 -41.5v-866q0 -184 53 -256t174 -72q111 0 167 74t56 254v866q4 53 58 60h82q6 0 16 -2t26.5 -16.5t16.5 -41.5v-856q0 -233 -103.5 -382.5t-318.5 -149.5q-211 0 -318.5 149.5t-107.5 382.5v856q4 54 57 60z" />
<glyph unicode="&#xdc;" horiz-adv-x="1064" d="M176 1434h82q6 0 16.5 -2t26.5 -16.5t16 -41.5v-866q0 -184 53.5 -256t174.5 -72q111 0 167 74t56 254v866q4 53 57 60h82q6 0 16.5 -2t27 -16.5t16.5 -41.5v-856q0 -233 -103.5 -382.5t-318.5 -149.5q-211 0 -318.5 149.5t-107.5 382.5v856q4 54 57 60zM287 1782h94 q23 0 39 -16.5t16 -43.5v-86q0 -27 -16.5 -43t-38.5 -16h-94q-23 0 -39.5 16.5t-16.5 42.5v86q0 27 16.5 43.5t39.5 16.5zM688 1782h94q23 0 39.5 -16.5t16.5 -43.5v-86q0 -27 -16.5 -43t-39.5 -16h-94q-23 0 -39 16.5t-16 42.5v86q0 27 16 43.5t39 16.5z" />
<glyph unicode="&#xdf;" horiz-adv-x="944" d="M143 59v1006q0 63 18.5 125.5t56.5 123t111.5 97.5t172.5 37q168 0 264 -104.5t96 -233.5q0 -100 -35.5 -170t-136.5 -111q111 -41 173.5 -143t62.5 -217q0 -199 -98.5 -334t-301.5 -135h-26q-27 0 -43.5 16.5t-16.5 38.5v60q0 25 17.5 41t42.5 16h28q217 0 217 297 q0 106 -73.5 193.5t-184.5 87.5h-20q-27 2 -43 18t-16 39v59q0 23 17 40.5t42 17.5h22q80 0 132.5 45t52.5 141q0 76 -48 119t-124 43q-82 0 -129 -52.5t-47 -154.5v-1006q0 -27 -16.5 -43t-39.5 -16h-71q-23 0 -39.5 16t-16.5 43z" />
<glyph unicode="&#xe0;" horiz-adv-x="882" d="M375 403q-96 -23 -96 -114q0 -51 36.5 -91t94.5 -40q76 0 128 60.5t52 133.5v103zM442.5 1038q141.5 0 237.5 -94t96 -268v-617q0 -27 -16.5 -43t-38.5 -16h-72q-23 0 -39 16.5t-16 42.5v19q-27 -41 -85 -66.5t-120 -25.5q-123 0 -210 86t-87 208.5t56.5 191.5t197.5 103 l244 60v86q0 63 -42 104t-106 41q-68 0 -102.5 -29.5t-34.5 -76.5q0 -27 -15.5 -43.5t-39.5 -16.5h-76q-25 0 -40 16.5t-15 43.5q0 125 91 201.5t232.5 76.5z" />
<glyph unicode="&#xe4;" horiz-adv-x="862" d="M350 403q-96 -23 -96 -114q0 -51 37 -91t94 -40q76 0 128 60.5t52 133.5v103zM417.5 1038q141.5 0 238 -94t96.5 -268v-617q0 -27 -16.5 -43t-39.5 -16h-71q-23 0 -39.5 16.5t-16.5 42.5v19q-27 -41 -85 -66.5t-119 -25.5q-123 0 -210 86t-87 208.5t56 191.5t198 103 l243 60v86q0 63 -42 104t-105 41q-68 0 -102.5 -29.5t-34.5 -76.5q0 -27 -15.5 -43.5t-40.5 -16.5h-75q-25 0 -40.5 16.5t-15.5 43.5q0 125 91 201.5t232.5 76.5zM266 1413h94q23 0 39.5 -16.5t16.5 -42.5v-86q0 -27 -16.5 -43.5t-39.5 -16.5h-94q-23 0 -39 16.5t-16 43.5 v86q0 27 16 43t39 16zM668 1413h94q23 0 39 -16.5t16 -42.5v-86q0 -27 -16.5 -43.5t-38.5 -16.5h-94q-23 0 -39.5 16.5t-16.5 43.5v86q0 27 16.5 43t39.5 16z" />
<glyph unicode="&#xe8;" horiz-adv-x="925" d="M492 1038q143 0 236 -80.5t93 -214.5v-137q0 -96 -98 -112l-404 -76v-101q2 -68 45.5 -113.5t112.5 -45.5q82 0 120 45t38 110q0 27 14.5 42.5t30.5 17.5l14 2h64q63 0 63 -64q0 -139 -94 -232t-250 -93q-152 0 -248 94t-96 237v363q0 158 95.5 258t263.5 100zM481 866 q-84 0 -123 -47t-39 -123v-102l316 61v88q0 59 -42 91t-112 32z" />
<glyph unicode="&#xeb;" horiz-adv-x="862" d="M463 1038q143 0 236.5 -80.5t93.5 -214.5v-137q0 -96 -99 -112l-403 -76v-101q2 -68 45 -113.5t113 -45.5q82 0 119.5 45t37.5 110q0 27 14.5 42.5t30.5 17.5l15 2h63q63 0 64 -64q0 -139 -94.5 -232t-249.5 -93q-152 0 -248.5 94t-96.5 237v363q0 158 95.5 258 t263.5 100zM453 866q-84 0 -123 -47t-39 -123v-102l315 61v88q0 59 -41.5 91t-111.5 32zM184 1413h95q23 0 39 -16.5t16 -42.5v-86q0 -27 -16.5 -43.5t-38.5 -16.5h-95q-23 0 -39 16.5t-16 43.5v86q0 27 16 43t39 16zM586 1413h94q23 0 39 -16.5t16 -42.5v-86 q0 -27 -16.5 -43.5t-38.5 -16.5h-94q-23 0 -39.5 16.5t-16.5 43.5v86q0 27 16.5 43t39.5 16z" />
<glyph unicode="&#xec;" d="M217 1024h76q23 0 39 -16.5t16 -42.5v-906q0 -27 -16.5 -43t-40.5 -16h-74q-23 0 -39 16.5t-16 42.5v906q0 27 16 43t39 16zM303 1434q23 0 39 -16.5t16 -43.5v-106q0 -27 -16 -43.5t-39 -16.5h-94q-23 0 -39 16.5t-16 43.5v106q0 27 16 43.5t39 16.5h94z" />
<glyph unicode="&#xef;" d="M9 1761h94q23 0 39 -16.5t16 -42.5v-86q0 -27 -16.5 -43.5t-38.5 -16.5h-94q-23 0 -39.5 16.5t-16.5 43.5v86q0 27 16.5 43t39.5 16zM410 1761h94q23 0 39 -16.5t16 -42.5v-86q0 -27 -16 -43.5t-39 -16.5h-94q-23 0 -39 16.5t-16 43.5v86q0 27 16 43t39 16zM217 1024h76 q23 0 39 -16.5t16 -42.5v-906q0 -27 -16.5 -43t-40.5 -16h-74q-23 0 -39 16.5t-16 42.5v906q0 27 16 43t39 16zM303 1434q23 0 39 -16.5t16 -43.5v-106q0 -27 -16 -43.5t-39 -16.5h-94q-23 0 -39 16.5t-16 43.5v106q0 27 16 43.5t39 16.5h94z" />
<glyph unicode="&#xf2;" horiz-adv-x="864" d="M446.5 866q-157.5 0 -157.5 -207v-307q0 -195 155 -194q160 0 160 194v307q0 207 -157.5 207zM449 -14h-5q-156 0 -249 97t-93 269v307q0 195 91.5 287t253 92t253 -92t91.5 -287v-307q0 -172 -93 -269t-249 -97z" />
<glyph unicode="&#xf6;" horiz-adv-x="874" d="M452.5 866q157.5 0 157.5 -207v-307q0 -195 -159 -194q-156 0 -156 194v307q0 207 157.5 207zM451 -14h4q156 0 249 97t93 269v307q0 195 -91.5 287t-253 92t-252.5 -92t-91 -287v-307q0 -172 93 -269t249 -97zM262 1413h94q23 0 39.5 -16.5t16.5 -42.5v-86 q0 -27 -16.5 -43.5t-39.5 -16.5h-94q-23 0 -39 16.5t-16 43.5v86q0 27 16 43t39 16zM664 1413h94q23 0 39 -16.5t16 -42.5v-86q0 -27 -16.5 -43.5t-38.5 -16.5h-94q-23 0 -39.5 16.5t-16.5 43.5v86q0 27 16.5 43t39.5 16z" />
<glyph unicode="&#xf9;" horiz-adv-x="923" d="M834 965v-906q0 -27 -16.5 -43t-39.5 -16h-71q-23 0 -39.5 16.5t-16.5 42.5v19q-66 -92 -192 -92q-145 0 -235.5 97t-90.5 263v619q0 27 16.5 43t38.5 16h76q23 0 39 -16.5t16 -42.5v-633q0 -88 46.5 -131t111.5 -43q78 0 124 45t46 129v633q0 27 16.5 43t38.5 16h76 q23 0 39.5 -16t16.5 -43z" />
<glyph unicode="&#xfc;" horiz-adv-x="892" d="M815 965v-906q0 -27 -16.5 -43t-38.5 -16h-72q-23 0 -39 16.5t-16 42.5v19q-31 -43 -85 -67.5t-108 -24.5q-145 0 -235 97t-90 263v619q0 27 16 43t39 16h76q23 0 39 -16.5t16 -42.5v-633q0 -88 46 -131t112 -43q78 0 124 45t46 129v633q0 27 16.5 43t38.5 16h76 q23 0 39 -16t16 -43zM207 1413h94q23 0 39 -16.5t16 -42.5v-86q0 -27 -16 -43.5t-39 -16.5h-94q-23 0 -39 16.5t-16 43.5v86q0 27 16 43t39 16zM608 1413h94q23 0 39.5 -16.5t16.5 -42.5v-86q0 -27 -16.5 -43.5t-39.5 -16.5h-94q-23 0 -39 16.5t-16 43.5v86q0 27 16 43 t39 16z" />
<glyph unicode="&#xff;" horiz-adv-x="811" d="M181 1366h94q23 0 39 -16.5t16 -42.5v-86q0 -27 -16.5 -43.5t-38.5 -16.5h-94q-23 0 -39.5 16.5t-16.5 43.5v86q0 27 16.5 43t39.5 16zM582 1366h94q23 0 39 -16.5t16 -42.5v-86q0 -27 -16 -43.5t-39 -16.5h-94q-23 0 -39 16.5t-16 43.5v86q0 27 16 43t39 16zM150 -406 q-27 0 -41.5 15.5t-16.5 30.5l-2 16v72q0 6 2 16t16.5 27.5t41.5 17.5q125 0 145 78l33 133h-11q-25 0 -36 31l-224 934q-3 10 -3 18q0 16 11 26q15 15 44 15h90q49 0 65 -59l142 -701h4l180 701q16 59 65 59h90q29 0 45 -15q10 -10 10 -26q0 -8 -3 -18l-320 -1129 q-39 -141 -115.5 -191.5t-211.5 -50.5z" />
<glyph unicode="&#x152;" horiz-adv-x="2131" d="M1266 1434h723q53 -4 59 -58v-80v-6q0 -4 -3 -14t-9 -17.5t-17.5 -13.5t-27.5 -6h-527v-420h390q53 -4 59 -57v-80v-6q0 -4 -3 -14.5t-9 -17.5t-17.5 -13t-27.5 -6h-392v-430h525q53 -4 59 -58v-80v-6q0 -4 -3 -14t-9 -17.5t-17.5 -13.5t-27.5 -6h-725v1434zM569 1448 q217 0 320.5 -129t103.5 -338v-530q0 -209 -103.5 -337t-320.5 -128t-321.5 128t-104.5 337v530q0 209 104.5 338t321.5 129zM569 1253q-227 0 -227 -272v-530q0 -270 227 -271q225 0 226 271v530q-1 272 -226 272z" />
<glyph unicode="&#x153;" horiz-adv-x="1789" d="M1356 1038q143 0 236 -80.5t93 -214.5v-137q0 -96 -98 -112l-404 -76v-101q2 -68 45.5 -113.5t112.5 -45.5q82 0 120 45t38 110q0 27 14.5 42.5t30.5 17.5l14 2h64q63 0 63 -64q0 -139 -94 -232t-250 -93q-152 0 -248 94t-96 237v363q0 158 95.5 258t263.5 100zM1345 866 q-84 0 -123 -47t-39 -123v-102l316 61v88q0 59 -42 91t-112 32zM446.5 866q-157.5 0 -157.5 -207v-307q0 -195 155 -194q160 0 160 194v307q0 207 -157.5 207zM449 -14h-5q-156 0 -249 97t-93 269v307q0 195 91.5 287t253 92t253 -92t91.5 -287v-307q0 -172 -93 -269 t-249 -97z" />
<glyph unicode="&#x178;" horiz-adv-x="1103" d="M345 1775h94q23 0 39 -16.5t16 -42.5v-86q0 -27 -16.5 -43.5t-38.5 -16.5h-94q-23 0 -39.5 16.5t-16.5 43.5v86q0 27 16.5 43t39.5 16zM746 1775h94q23 0 39 -16.5t16 -42.5v-86q0 -27 -16 -43.5t-39 -16.5h-94q-23 0 -39 16.5t-16 43.5v86q0 27 16 43t39 16zM152 1434 h112q43 0 58 -50l282 -708h21l252 708q16 49 57 50h98q18 0 28.5 -2t24.5 -18q7 -7 7 -18q0 -12 -9 -28l-479 -1319q-12 -33 -24.5 -41t-32.5 -8h-94q-18 0 -28.5 2t-25 17.5t1.5 46.5l134 364h-19q-25 0 -37 31l-364 907q-9 25 -9 39q0 9 4 14q9 13 42 13z" />
<glyph unicode="&#x2000;" horiz-adv-x="890" />
<glyph unicode="&#x2001;" horiz-adv-x="1781" />
<glyph unicode="&#x2002;" horiz-adv-x="890" />
<glyph unicode="&#x2003;" horiz-adv-x="1781" />
<glyph unicode="&#x2004;" horiz-adv-x="593" />
<glyph unicode="&#x2005;" horiz-adv-x="444" />
<glyph unicode="&#x2006;" horiz-adv-x="296" />
<glyph unicode="&#x2007;" horiz-adv-x="296" />
<glyph unicode="&#x2008;" horiz-adv-x="221" />
<glyph unicode="&#x2009;" horiz-adv-x="356" />
<glyph unicode="&#x200a;" horiz-adv-x="98" />
<glyph unicode="&#x2010;" horiz-adv-x="628" d="M166 635h354q25 0 42.5 -16.5t17.5 -40.5v-60q0 -23 -16.5 -39t-43.5 -16h-354q-27 0 -43.5 16.5t-16.5 38.5v60q0 25 16.5 41t43.5 16z" />
<glyph unicode="&#x2011;" horiz-adv-x="628" d="M166 635h354q25 0 42.5 -16.5t17.5 -40.5v-60q0 -23 -16.5 -39t-43.5 -16h-354q-27 0 -43.5 16.5t-16.5 38.5v60q0 25 16.5 41t43.5 16z" />
<glyph unicode="&#x2012;" horiz-adv-x="628" d="M166 635h354q25 0 42.5 -16.5t17.5 -40.5v-60q0 -23 -16.5 -39t-43.5 -16h-354q-27 0 -43.5 16.5t-16.5 38.5v60q0 25 16.5 41t43.5 16z" />
<glyph unicode="&#x2013;" horiz-adv-x="835" d="M131 635h633q27 0 43 -16.5t16 -40.5v-60q0 -23 -16 -39t-43 -16h-633q-27 0 -43 16.5t-16 38.5v60q0 25 17 41t42 16z" />
<glyph unicode="&#x2014;" horiz-adv-x="1118" d="M131 635h916q27 0 43 -16.5t16 -40.5v-60q0 -23 -16.5 -39t-42.5 -16h-916q-27 0 -43 16.5t-16 38.5v60q0 25 17 41t42 16z" />
<glyph unicode="&#x2018;" horiz-adv-x="352" d="M295 1608v-21q0 -35 -43 -35q-45 0 -63.5 -39.5t-18.5 -121.5h33q23 0 39 -16.5t16 -43.5v-94q0 -27 -16.5 -43t-38.5 -16h-103q-23 0 -39 16t-16 43v133q0 123 48 197.5t140 74.5h19q43 1 43 -34z" />
<glyph unicode="&#x2019;" horiz-adv-x="368" d="M45 1085v21q0 35 43 35q45 0 63.5 40t18.5 122h-33q-23 0 -39 16t-16 43v94q0 27 16.5 43.5t38.5 16.5h103q23 0 39 -16.5t16 -43.5v-133q0 -123 -48 -197.5t-141 -74.5h-18q-43 -1 -43 34z" />
<glyph unicode="&#x201a;" horiz-adv-x="344" d="M39 -217v20q0 35 43 35q45 0 63.5 40t18.5 122h-33q-23 0 -39 16.5t-16 42.5v95q0 27 16.5 43t38.5 16h102q23 0 39.5 -16.5t16.5 -42.5v-134q0 -123 -48 -197.5t-141 -74.5h-18q-43 0 -43 35z" />
<glyph unicode="&#x201c;" horiz-adv-x="663" d="M352 1608v-21q0 -35 -43 -35q-45 0 -63.5 -39.5t-18.5 -121.5h33q23 0 39 -16.5t16 -43.5v-94q0 -27 -16 -43t-39 -16h-102q-23 0 -39.5 16t-16.5 43v133q0 123 48.5 197.5t140.5 74.5h18q43 1 43 -34zM641 1608v-21q0 -35 -43 -35q-45 0 -63.5 -39.5t-18.5 -121.5h33 q23 0 39 -16.5t16 -43.5v-94q0 -27 -16.5 -43t-38.5 -16h-103q-23 0 -39 16t-16 43v133q0 123 48 197.5t141 74.5h18q43 1 43 -34z" />
<glyph unicode="&#x201d;" horiz-adv-x="671" d="M342 1085v21q0 35 43 35q45 0 63.5 40t18.5 122h-33q-23 0 -39 16t-16 43v94q0 27 16.5 43.5t38.5 16.5h103q23 0 39 -16.5t16 -43.5v-133q0 -123 -48 -197.5t-141 -74.5h-18q-43 -1 -43 34zM53 1085v21q0 35 43 35q45 0 63.5 40t18.5 122h-33q-23 0 -39 16t-16 43v94 q0 27 16.5 43.5t38.5 16.5h103q23 0 39 -16.5t16 -43.5v-133q0 -123 -48 -197.5t-140 -74.5h-19q-43 -1 -43 34z" />
<glyph unicode="&#x201e;" horiz-adv-x="649" d="M334 -217v20q0 35 43 35q45 0 63.5 40t18.5 122h-33q-23 0 -39 16.5t-16 42.5v95q0 27 16 43t39 16h102q23 0 39.5 -16.5t16.5 -42.5v-134q0 -123 -48.5 -197.5t-140.5 -74.5h-18q-43 0 -43 35zM45 -217v20q0 35 43 35q45 0 63.5 40t18.5 122h-33q-23 0 -39 16.5 t-16 42.5v95q0 27 16.5 43t38.5 16h103q23 0 39 -16.5t16 -42.5v-134q0 -123 -48 -197.5t-141 -74.5h-18q-43 0 -43 35z" />
<glyph unicode="&#x2026;" horiz-adv-x="950" d="M147 213h103q23 0 39 -16.5t16 -42.5v-95q0 -27 -16.5 -43t-38.5 -16h-103q-23 0 -39 16.5t-16 42.5v95q0 27 16 43t39 16zM498 213h102q23 0 39 -16.5t16 -42.5v-95q0 -27 -16 -43t-39 -16h-102q-23 0 -39.5 16.5t-16.5 42.5v95q0 27 16.5 43t39.5 16zM848 213h102 q23 0 39.5 -16.5t16.5 -42.5v-95q0 -27 -16.5 -43t-39.5 -16h-102q-23 0 -39 16.5t-16 42.5v95q0 27 16 43t39 16z" />
<glyph unicode="&#x202f;" horiz-adv-x="356" />
<glyph unicode="&#x205f;" horiz-adv-x="444" />
<glyph unicode="&#x20ac;" horiz-adv-x="1075" d="M495.5 1448q182.5 0 278.5 -117t96 -311v-604q0 -190 -102 -310t-272 -120t-271.5 119.5t-101.5 310.5v604q0 195 95 311.5t277.5 116.5zM496 174q90 0 133 63.5t43 211.5v534q0 147 -43 208.5t-133 61.5t-132 -61.5t-42 -208.5v-534q0 -150 42 -212.5t132 -62.5z" />
<glyph unicode="&#x2122;" horiz-adv-x="2226" d="M1208 1434h121q41 0 64 -45l229 -537l227 537q20 45 64 45h116q6 0 16.5 -2t28 -16.5t17.5 -41.5v-1315q0 -6 -2 -16t-17.5 -26.5t-42.5 -16.5h-75q-6 0 -16.5 2t-28 16.5t-17.5 40.5l21 1012l-183 -459q-18 -43 -57 -43h-92q-43 0 -61 43l-193 469l20 -1022q0 -6 -2 -16 t-16 -26.5t-41 -16.5h-80q-6 0 -16 2t-26.5 16.5t-16.5 40.5v1315q0 6 2 16.5t16 27t41 16.5zM141 1434h738q53 -4 59 -58v-78q0 -6 -2 -16t-16.5 -26.5t-40.5 -16.5h-271v-1180q-4 -53 -57 -59h-82q-6 0 -16.5 2t-26.5 16.5t-16 40.5v1180h-269q-53 4 -59 57v78q0 6 2 16.5 t16 27t41 16.5z" />
<glyph unicode="&#xe000;" horiz-adv-x="1025" d="M0 1025h1025v-1025h-1025v1025z" />
<glyph unicode="&#xfb01;" horiz-adv-x="1101" d="M866 1024h76q23 0 39 -16.5t16 -42.5v-906q0 -27 -16.5 -43t-40.5 -16h-74q-23 0 -39 16.5t-16 42.5v906q0 27 16 43t39 16zM952 1434q23 0 39 -16.5t16 -43.5v-106q0 -27 -16 -43.5t-39 -16.5h-94q-23 0 -39 16.5t-16 43.5v106q0 27 16 43.5t39 16.5h94zM233 1106 q0 156 83 242t245 86h41q25 0 42.5 -16.5t17.5 -41.5v-59q0 -23 -16.5 -39t-43.5 -16h-41q-88 0 -114.5 -41t-26.5 -115v-100h170q25 0 42 -17.5t17 -40.5v-59q0 -23 -16.5 -39t-42.5 -16h-170v-775q0 -27 -17.5 -43t-40.5 -16h-73q-23 0 -39.5 16.5t-16.5 42.5v775h-40 q-27 0 -43.5 16t-16.5 39v59q0 23 17.5 40.5t42.5 17.5h40v100z" />
<glyph unicode="&#xfb02;" horiz-adv-x="1177" d="M852 1434h73q23 0 40.5 -16.5t17.5 -43.5v-1061q0 -47 7 -76.5t40 -54t94 -24.5h41q27 0 43 -16.5t16 -39.5v-59q0 -23 -17 -40t-42 -17h-41q-162 0 -245 86t-83 241v1061q0 27 16.5 43.5t39.5 16.5zM233 1106q0 156 83 242t245 86h41q25 0 42.5 -16.5t17.5 -41.5v-59 q0 -23 -16.5 -39t-43.5 -16h-41q-88 0 -114.5 -41t-26.5 -115v-100h170q25 0 42 -17.5t17 -40.5v-59q0 -23 -16.5 -39t-42.5 -16h-170v-775q0 -27 -17.5 -43t-40.5 -16h-73q-23 0 -39.5 16.5t-16.5 42.5v775h-40q-27 0 -43.5 16t-16.5 39v59q0 23 17.5 40.5t42.5 17.5h40 v100z" />
<glyph unicode="&#xfb03;" horiz-adv-x="1751" d="M1515 1024h76q23 0 39 -16.5t16 -42.5v-906q0 -27 -16.5 -43t-40.5 -16h-74q-23 0 -39 16.5t-16 42.5v906q0 27 16 43t39 16zM1601 1434q23 0 39 -16.5t16 -43.5v-106q0 -27 -16 -43.5t-39 -16.5h-94q-23 0 -39 16.5t-16 43.5v106q0 27 16 43.5t39 16.5h94zM882 1106 q0 156 83 242t245 86h41q25 0 42.5 -16.5t17.5 -41.5v-59q0 -23 -16.5 -39t-43.5 -16h-41q-88 0 -114.5 -41t-26.5 -115v-100h170q25 0 42 -17.5t17 -40.5v-59q0 -23 -16.5 -39t-42.5 -16h-170v-775q0 -27 -17.5 -43t-40.5 -16h-73q-23 0 -39.5 16.5t-16.5 42.5v775h-40 q-27 0 -43.5 16t-16.5 39v59q0 23 17.5 40.5t42.5 17.5h40v100zM233 1106q0 156 83 242t245 86h41q25 0 42.5 -16.5t17.5 -41.5v-59q0 -23 -16.5 -39t-43.5 -16h-41q-88 0 -114.5 -41t-26.5 -115v-100h170q25 0 42 -17.5t17 -40.5v-59q0 -23 -16.5 -39t-42.5 -16h-170v-775 q0 -27 -17.5 -43t-40.5 -16h-73q-23 0 -39.5 16.5t-16.5 42.5v775h-40q-27 0 -43.5 16t-16.5 39v59q0 23 17.5 40.5t42.5 17.5h40v100z" />
<glyph unicode="&#xfb04;" horiz-adv-x="1826" d="M1501 1434h73q23 0 40.5 -16.5t17.5 -43.5v-1061q0 -47 7 -76.5t40 -54t94 -24.5h41q27 0 43 -16.5t16 -39.5v-59q0 -23 -17 -40t-42 -17h-41q-162 0 -245 86t-83 241v1061q0 27 16.5 43.5t39.5 16.5zM882 1106q0 156 83 242t245 86h41q25 0 42.5 -16.5t17.5 -41.5v-59 q0 -23 -16.5 -39t-43.5 -16h-41q-88 0 -114.5 -41t-26.5 -115v-100h170q25 0 42 -17.5t17 -40.5v-59q0 -23 -16.5 -39t-42.5 -16h-170v-775q0 -27 -17.5 -43t-40.5 -16h-73q-23 0 -39.5 16.5t-16.5 42.5v775h-40q-27 0 -43.5 16t-16.5 39v59q0 23 17.5 40.5t42.5 17.5h40 v100zM233 1106q0 156 83 242t245 86h41q25 0 42.5 -16.5t17.5 -41.5v-59q0 -23 -16.5 -39t-43.5 -16h-41q-88 0 -114.5 -41t-26.5 -115v-100h170q25 0 42 -17.5t17 -40.5v-59q0 -23 -16.5 -39t-42.5 -16h-170v-775q0 -27 -17.5 -43t-40.5 -16h-73q-23 0 -39.5 16.5 t-16.5 42.5v775h-40q-27 0 -43.5 16t-16.5 39v59q0 23 17.5 40.5t42.5 17.5h40v100z" />
</font>
</defs>
</svg>
